#TITLE:S.O.S.;
#SUBTITLE:(The Tiger Took My Family);
#ARTIST:Dr. Bombay;
#TITLETRANSLIT:;
#SUBTITLETRANSLIT:;
#ARTISTTRANSLIT:;
#CREDIT:;
#BANNER:sos-banner.png;
#BACKGROUND:sos-bg.png;
#LYRICSPATH:;
#CDTITLE:;
#MUSIC:S O S.mp3;
#MUSICLENGTH:92.873;
#OFFSET:-0.040;
#SAMPLESTART:69.525;
#SAMPLELENGTH:12.000;
#SELECTABLE:YES;
#BPMS:0.000=138.000;
#STOPS:;
#BGCHANGES:;
#FIRSTBEAT:16.000;

#LASTBEAT:212.000;

#SONGFILENAME:Songs/ERICth The 3rd/S O S/SOS.sm;

#HASMUSIC:1;

#HASBANNER:1;


//---------------dance-single - MANIAC----------------
#NOTES:
     dance-single:
     MANIAC:
     hard:
     9:
     0.541,0.599,0.194,0.043,0.248,330.000,18.000,4.000,0.000,0.000:

0000
0000
0000
0000
,
0000
0000
0000
0000
,
0000
0000
0000
0000
,
0000
0000
0000
0000
,
1000
0000
0100
0010
0000
0000
0001
0000
0001
0000
0100
0010
0000
0000
0100
0000
,
1000
0000
0100
0010
0000
0000
0001
0000
0001
0000
0100
0000
0110
0000
0100
0000
,
1000
0000
0100
0010
0000
0000
0001
0000
0001
0000
0100
0010
0100
0010
0100
0000
,
1000
0000
0100
0010
0000
0000
0001
0010
0001
0010
0001
0000
0001
0000
1000
0000
,
1000
0000
0100
0010
0000
0000
0100
0000
0000
0000
0100
0000
0000
0000
1000
0100
,
0000
0100
1000
0000
1000
0000
0001
0000
0001
0000
0100
0010
0100
0010
0100
0010
,
0100
0001
1000
0100
0010
0001
1001
0000
,
1001
0000
1001
0000
1001
0000
0000
1000
,
0010
0100
0001
0100
1000
0100
0010
0010
,
0001
1000
0001
1000
1000
0000
0000
1000
,
0001
1000
0100
1000
0010
0001
0010
0001
,
0010
0000
0010
0000
1100
0000
0000
0000
1010
0000
0000
0000
0000
0000
0010
0001
,
0010
0010
0001
0001
1000
0000
1000
0001
,
0100
0010
0100
0010
0110
0000
0000
1000
,
1000
0010
0001
0010
1000
0100
1000
0010
,
1001
1001
0110
0000
,
1000
0001
0000
0000
0001
0100
0000
0000
0100
0010
0000
0000
0000
0000
0001
0000
,
0010
0001
0010
0001
1000
0100
1000
0000
,
1000
0100
0000
0000
0100
0010
0000
0000
0010
0001
0000
0000
0000
0000
0100
0000
,
0010
0100
0001
0100
1000
0100
0010
0000
,
0010
0100
0000
0000
0100
0001
0000
0000
0001
1000
0000
0000
0000
0000
0001
0000
,
0010
0100
1000
0100
0001
0100
1000
0000
,
1000
0001
0000
0000
0001
1000
0000
0000
1000
0001
0000
0000
0000
0000
1000
0000
,
0100
1000
0100
1000
0100
1000
0200
0000
,
1300
0100
0010
0001
0010
0000
0010
0001
,
0100
0001
0100
0001
0100
0000
0000
0000
,
0100
1000
0010
1000
0100
1000
0100
0000
,
1000
0000
0001
0000
0110
0000
0000
0010
,
0100
0001
0100
0010
0001
0001
0010
1000
,
0100
1000
0010
1000
1100
0000
0000
0010
,
0100
0010
0100
0001
0100
1000
0100
1000
,
0001
0010
0001
0000
0011
0000
0000
1000
,
0010
0100
0010
0001
0020
0000
0000
0130
,
1000
0100
0001
0100
0010
0000
0000
0100
,
0110
0100
0100
0001
0100
1000
0100
0100
,
0110
1001
0110
0000
,
1000
0001
0000
0000
0001
0100
0000
0000
0100
0010
0000
0000
0000
0000
0001
0000
,
0010
0001
0010
0001
1000
0100
1000
0000
,
1000
0100
0000
0000
0100
0010
0000
0000
0010
0001
0000
0000
0000
0000
0100
0000
,
0010
0100
0001
0100
1000
0100
0010
0000
,
0010
0100
0000
0000
0100
0001
0000
0000
0001
1000
0000
0000
0000
0000
0001
0000
,
0010
0100
1000
0100
0001
0100
1000
0000
,
1000
0001
0000
0000
0001
1000
0000
0000
1000
0001
0000
0000
0000
0000
1000
0000
,
0100
1000
0100
1000
0100
1000
0200
0000
,
1300
0100
0000
0000
1000
0100
0000
0000
1000
0100
0000
0000
0000
0000
1000
0000
,
0010
0100
0010
0001
0010
1000
0100
0000
,
0010
0001
0000
0000
0010
0001
0000
0000
0010
0001
0000
0000
0000
0000
1000
0000
,
0010
0100
0001
0100
0010
1000
0020
0000
,
0000
0000
0000
0000
,
0030
0000
0000
0000;

//---------------dance-single - ANOTHER----------------
#NOTES:
     dance-single:
     ANOTHER:
     medium:
     6:
     0.355,0.427,0.032,0.054,0.000,223.000,3.000,5.000,0.000,0.000:

0000
0000
0000
0000
,
0000
0000
0000
0000
,
0000
0000
0000
0000
,
0000
0000
0000
0000
,
0010
1000
0100
0000
0010
1000
0100
0010
,
0001
1000
0100
0001
0100
0001
0001
0000
,
0010
0000
1000
0000
0100
0010
0001
1000
,
0001
0000
0100
0000
0100
0100
0100
0000
,
0010
1000
0001
0000
0100
0010
0001
0000
,
0100
1000
0010
1000
0010
1000
0001
0000
,
0100
1000
0010
0000
0001
0100
0001
0000
,
0010
1000
0100
0001
0100
1000
0010
0000
,
1000
0100
1000
0010
1000
0000
0000
0000
,
0001
0010
0001
0010
0001
0000
0000
0000
,
0100
1000
0010
0100
0001
0000
0000
0000
,
0100
1000
0010
0000
0110
0000
0000
0000
,
0001
1000
0100
0001
0100
0000
0000
0000
,
0001
0010
0001
0010
0001
0000
0000
0000
,
1000
0000
0010
0000
1000
0000
0001
1000
,
0100
0001
0010
0000
,
0100
0000
0100
0000
0100
0000
0000
0010
,
1000
0100
1000
0010
1000
0100
1000
0000
,
0010
0000
0010
0000
0010
0000
0000
0010
,
0001
0100
0001
0100
0001
0100
0001
0000
,
1000
0000
0001
0000
1000
0000
0000
1000
,
0001
1000
0001
1000
0001
0000
1000
0000
,
0010
0000
1000
0000
0100
0000
0000
0010
,
0001
0100
0001
0100
0010
1000
0001
0000
,
0100
0000
1000
0000
,
0010
0010
0010
0000
,
0001
0000
1000
0000
,
0010
0001
0100
0000
,
1000
0000
0010
1000
0100
0000
0000
0000
,
0010
0001
0100
0001
1000
0000
0000
0000
,
0010
0100
0001
1000
0001
0000
0000
0000
,
0100
1000
0010
0000
1010
0000
0000
0000
,
0100
0001
0100
0001
0010
0000
0000
0000
,
0100
1000
0100
1000
0010
0000
0000
0000
,
0010
0001
0010
1000
0100
0000
0001
0000
,
1000
0001
1001
0000
,
0100
0100
0100
0000
,
1000
0100
0001
0100
1000
0100
0001
0000
,
0010
0010
0010
0000
,
0001
0100
1000
0100
0001
0100
1000
0000
,
0100
0100
0100
0000
,
1000
0010
0001
0010
1000
0010
0001
0000
,
0100
0100
0100
0000
,
0001
0010
1000
0010
0001
0010
1000
0000
,
0002
0000
0000
0000
,
2003
0000
0000
0000
,
3020
0000
0000
0000
0000
0000
0000
0030
,
0200
0000
0000
0000
,
0302
0000
0000
0000
0000
0000
0000
0003;

//---------------dance-single - BASIC----------------
#NOTES:
     dance-single:
     BASIC:
     easy:
     4:
     0.220,0.285,0.065,0.022,0.000,135.000,6.000,2.000,0.000,0.000:

0000
0000
0000
0000
,
0000
0000
0000
0000
,
0000
0000
0000
0000
,
0000
0000
0000
0000
,
0100
0100
0010
0010
,
0100
0100
0010
0010
,
0100
0100
0010
0010
,
0100
0100
0010
0010
,
1000
1000
0001
0001
,
1000
1000
0001
0001
,
1000
1000
0001
0001
,
1000
0001
1000
1001
,
0100
0000
0000
0010
,
0100
0001
1000
0000
,
0100
0000
0010
0000
,
1000
0010
0001
0000
,
0100
0000
1000
0000
,
0001
0100
0010
0000
,
1000
0000
0002
1003
,
0001
1001
1001
0000
,
0100
0010
0100
0000
,
1000
0000
1000
0000
,
0010
0100
0010
0000
,
0001
0000
1000
0000
,
0010
0100
0010
0000
,
1000
0000
0001
0000
,
0010
0100
0010
0000
,
1000
0100
0010
0010
,
0010
0000
0000
0000
,
0001
0000
0000
0000
,
0100
0000
0000
0000
,
1000
0000
0000
0000
,
0010
0000
1000
0000
,
0001
0100
0010
0000
,
1000
0000
0001
0000
,
0100
1000
0010
0000
,
0001
0000
1000
0000
,
0100
1000
0100
0000
,
0001
0000
0100
0000
,
1001
1001
1001
0000
,
0100
0010
0100
0000
,
1000
0001
0000
0000
,
0100
0010
0100
0000
,
1000
0000
0001
0000
,
0100
0010
0100
0000
,
0001
1000
0000
0000
,
0100
0010
0100
0000
,
1000
0100
0001
0010
,
1000
0100
1000
0000
,
0001
0100
0001
0000
,
1000
0100
1000
0000
,
0001
0100
0001
1000
,
0020
0000
0000
0000
,
0030
0000
0000
0000;
